Image 01
profile-image

Xanf

Alex Xan Saint Petersburg, Russian Federation
test
Audio/Video/Image/Text/ISO Convert

Nautilus Scripts 379 comments

Score 81.9%
Jan 05 2017
Thanks for quick reply.
It's not bc, it was the first what i checked :)

i found the reason...it is quite simple: the script couldn't understand file's size ( i mean height and width)
ffmpeg(as i wrote) can read it:
...Stream #0.0(jpn): Video: h264, yuv420p, 864x480...

but in script window we see only
Matroska data
Stream #0.3(rus): Subtitle: 0x0000
metadata:
title: Russian

So, to convert this file i had chosen "Key in options" and wrote "-s 320x240" there.

For most other files(include Matroska) your script works without any problems. - Jan 08 2011
ow..not in this tread... i missed :)

i wanted to write as answer to "Video to wmv problem", due to can't use Not OFFICIALLY -w option :( - Jan 07 2011
I have the same problem..
the lastest version from 02.01.2011


...
ffmpeg command as executed:
ffmpeg -y -i 1.mkv -s 320x /media/WinC/Users/Cas/Downloads/1.mpg
...
[matroska @ 0x8433bc0]Estimating duration from bitrate, this may be inaccurate
Input #0, matroska, from '1.mkv':
Metadata:
doctype : matroska
Duration: 00:10:38.19, start: 0.000000, bitrate: 256 kb/s
Stream #0.0(jpn): Video: h264, yuv420p, 864x480, PAR 1:1 DAR 9:5, 29.97 fps, 29.97 tbr, 1k tbn, 59.94 tbc
Metadata:
title : 1
Stream #0.1(rus): Audio: mp3, 44100 Hz, 2 channels, s16, 128 kb/s
Stream #0.2(jpn): Audio: mp3, 48000 Hz, 2 channels, s16, 128 kb/s
Incorrect frame size

- Jan 07 2011
Score 81.9%
9   Jan 08 2011